Philips: Neue Firmware 96.0 für 4000er bis 5500er TV-Serien (2012) – Update 2

Philips: Neue Firmware 96.0 für 4000er bis 5500er TV-Serien (2012) – Update 2

1 Stern2 Sterne3 Sterne4 Sterne5 Sterne (Jetzt bewerten!)
Loading...

Tachchen,

Philips wird in Kürze hat für die 2012er TV-Serien 4000, 4300, 5000 und 5500 eine neue Firmware veröffentlichten: Version 96.0.

Q554E-0.96.0.0_bld2c Generation date: 14/12/2012 10:21:18

Q554M-0.96.0.0_bld2e Generation date: 14/12/2012 15:20:39

Q554E_0.96.0.0 (Date published: 2012-12-18)
Q554M_0.96.0.0 (Date published: 2012-12-18)

  • TV schaltet auf den Falschen Kanal, wenn dieser über EPG ausgewählt wurde
  • TV startet selbstständig neu bei der Erstinstallation
  • TV hängt beim Start aus dem Stand By
  • Fehler bei der Wiedergabe über den BBC iPlayer
  • Fehler bei der Wiedergabe von MP4 Dateien
  • TV startet neu wenn EasyLink aktiviert ist
  • Uhrzeit wird falsch angezeigt (Nur für Slovakai)
  • Kanal NED1 wird nicht gespeichert (nur für Niederlande)

WICHTIG: Nach der erfolgreichen Installation (also NACHDEM der TV wieder läuft), den TV 2-3 Minuten vom Strom zu nehmen (TV in Standby bringen, 2 Minuten warten, dann Kabel ziehen)!

Feedback-Thread im deutschen Philips Forum: hier

Bug-Meldungen im deutschen Philips Forum: hier

Toengel@Alex

Follow me on Twitter (@PhilipsToengel)

Update 1:

WICHTIG: ZUSÄTZLICH SOLLTE EIN UPDATE DER STANDBY-FIRMWARE DURCHGEFÜHRT WERDEN. Siehe hier.

Update 2 (11.4.2014):

Es gibt eine neue Version 97.0

3 Gedanken zu “Philips: Neue Firmware 96.0 für 4000er bis 5500er TV-Serien (2012) – Update 2”

  1. Wow, das ist mal ein Berg an konkreten Änderungen.

    Aber unmöglich hat Philips alle Probleme mit MP4-Dateien beseitigt. 😉

  2. I cant play a movie , no image, sound start 3 seconds , after the scree is black.
    General
    Unique ID : 248379777310804619517636604711706473038 (0xBADC347F7CE7F8598AAEB237F56EB24E)
    Complete name : *.mkv
    Format : Matroska
    Format version : Version 2
    File size : 5.30 GiB
    Duration : 2h 3mn
    Overall bit rate : 6 130 Kbps
    Encoded date : UTC 2013-01-13 11:54:10
    Writing application : mkvmerge v3.4.0 (‚Rapunzel‘) built on May 15 2010 09:38:20
    Writing library : libebml v0.8.0 + libmatroska v0.9.0

    Video
    ID : 1
    Format : AVC
    Format/Info : Advanced Video Codec
    Format profile : High@L4.1
    Format settings, CABAC : Yes
    Format settings, ReFrames : 12 frames
    Codec ID : V_MPEG4/ISO/AVC
    Duration : 2h 3mn
    Bit rate : 6 000 Kbps
    Width : 1 280 pixels
    Height : 544 pixels
    Display aspect ratio : 2.35:1
    Frame rate mode : Constant
    Frame rate : 23.976 fps
    Color space : YUV
    Chroma subsampling : 4:2:0
    Bit depth : 8 bits
    Scan type : Progressive
    Bits/(Pixel*Frame) : 0.359
    Stream size : 5.08 GiB (96%)
    Writing library : x264 core 129 r2230 1cffe9f
    Encoding settings : cabac=1 / ref=12 / deblock=1:-3:-3 / analyse=0x3:0x133 / me=umh / subme=9 / psy=1 / psy_rd=1.00:0.00 / mixed_ref=1 / me_range=24 / chroma_me=1 / trellis=2 /

    8x8dct=1 / cqm=0 / deadzone=21,11 / fast_pskip=1 / chroma_qp_offset=-2 / threads=3 / lookahead_threads=1 / sliced_threads=0 / nr=0 / decimate=1 / interlaced=0 / bluray_compat=0 /

    constrained_intra=0 / bframes=5 / b_pyramid=0 / b_adapt=2 / b_bias=0 / direct=3 / weightb=1 / open_gop=0 / weightp=2 / keyint=240 / keyint_min=23 / scenecut=40 / intra_refresh=0 /

    rc_lookahead=40 / rc=2pass / mbtree=1 / bitrate=6000 / ratetol=1.0 / qcomp=0.60 / qpmin=0 / qpmax=69 / qpstep=4 / cplxblur=20.0 / qblur=0.5 / ip_ratio=1.40 / aq=1:0.80
    Language : English
    Default : No
    Forced : No

    Audio
    ID : 3
    Format : AC-3
    Format/Info : Audio Coding 3
    Mode extension : CM (complete main)
    Format settings, Endianness : Big
    Codec ID : A_AC3
    Duration : 2h 3mn
    Bit rate mode : Constant
    Bit rate : 128 Kbps
    Channel(s) : 2 channels
    Channel positions : Front: L R
    Sampling rate : 48.0 KHz
    Bit depth : 16 bits
    Compression mode : Lossy
    Stream size : 113 MiB (2%)
    Default : Yes
    Forced : No

    Text
    ID : 2
    Format : UTF-8
    Codec ID : S_TEXT/UTF8
    Codec ID/Info : UTF-8 Plain Text
    Title : Romanian
    Language : Romanian
    Default : No
    Forced : No

Kommentare sind geschlossen.